Main Page Sitemap

Most viewed

"TV Ratings Thursday: 'The Big Bang Theory' Scores at 8pm; Grey's Anatomy Tops jungle book mowgli game for pc Night With Young Adults; My Generation Premiere Stalls".My Dad Says Adjusted Up".Contents Season summary edit Following Peter's rescue from the parallel universe, the prime..
Read more
This is the one instance (along with crocodile) where I'm even happy to use a really fast bullet travelling at around 3000 fps.'Cause I'm a warrior baby through and through Take my revenge.Play on these servers.How to Become an Expert Gamer You've Got..
Read more

Harry belafonte 20 greatest hits


harry belafonte 20 greatest hits

Wav Pre-gap length 0:00:01.53 Peak level.0 Extraction speed.0 X Track quality 100.0 Test CRC A3DC7DAF Copy CRC A3DC7DAF Accurately ripped (confidence 4) 26BBE588 (AR v2) Copy OK Track 4 Filename H img rel"usm" src sml/super_f" border"0" align"absmiddle" alt mcafee update for windows 8.1 / EAC ripsflacharry Belafonte.
Command line compressor : F img rel"usm" src sml/super_f" border"0" align"absmiddle" alt / Exact Audio CopyFlacflac.
Wav Pre-gap length 0:00:01.49 Peak level.2 Extraction speed.9 X Track quality.9 Test CRC DF884B98 Copy CRC DF884B98 Accurately ripped (confidence 4) 7633D8E4 (AR v2) Copy OK Track 3 Filename H img rel"usm" src sml/super_f" border"0" align"absmiddle" alt / EAC ripsflacharry Belafonte.Read mode : Secure, utilize accurate stream : Yes, defeat audio cache : Yes.Wav Pre-gap length 0:00:01.46 Peak level.2 Extraction speed.2 X Track quality 100.0 Test CRC C4D3B38A Copy CRC C4D3B38A Accurately ripped (confidence 4) D11D39B2 (AR v2) Copy OK Track 13 Filename H img rel"usm" src sml/super_f" border"0" align"absmiddle" alt / EAC ripsflacharry Belafonte.Folk Author: MorPeh, 20:53, artist: Harry Belafonte, title Of Album: Greatest Hits.Man Piaba (3:46).La Bamba (6:04).Harry Belafonte - All Time Greatest Hits, Vol.Cotton Fields (5:23).Matilda, Matilda (3:40).



Additional command line options : -8 -V -T white hat hacker bundle "artistartist" -T "titletitle" -T "albumalbumtitle" -T "dateyear" -T "tracknumbertracknr" -T "genregenre" -T "performeralbuminterpret" -T "composercomposer" -T "albumartistalbumartist" -T "discnumbercdnumber" -T "totaldiscstotalcds" -T "totaltracksnumtracks" -T "commentcomment" source -o dest.
Wav Pre-gap length 0:00:01.46 Peak level.1 Extraction speed.3 X Track quality 100.0 Test CRC 11493EB0 Copy CRC 11493EB0 Accurately ripped (confidence 4) 715D38DA (AR v2) Copy OK Track 5 Filename H img rel"usm" src sml/super_f" border"0" align"absmiddle" alt / EAC ripsflacharry Belafonte.
Wav Pre-gap length 0:00:01.53 Peak level.7 Extraction speed.8 X Track quality 100.0 Test CRC 6887EC7F Copy CRC 6887EC7F Accurately ripped (confidence 4) 082dbcfa (AR v2) Copy OK Track 14 Filename H img rel"usm" src sml/super_f" border"0" align"absmiddle" alt / EAC ripsflacharry Belafonte.
Michael Row the Boat Ashore (3:59).
Wav Pre-gap length 0:00:01.53 Peak level.5 Extraction speed.7 X Track quality 100.0 Test CRC 69B55FBA Copy CRC 69B55FBA Accurately ripped (confidence 4) 925FEB53 (AR v2) Copy OK All tracks accurately ripped No errors occurred End of status report Log checksum.TR24OF Harry Belafonte - Belafonte At Carnegie Hall: The Complete Concert (Reissue) - 1959/2015 (Calypso, Vocal, Folk).04.Pre-gap length 0:00:02.42, peak level.5, extraction speed.2.Cu Cu Ru Cu Cu Paloma (5:25).I Wanna Be Somebody.Jamaica Farewell (2:50).Wav Pre-gap length 0:00:01.57 Peak level.9 Extraction speed.7 X Track quality.9 Test CRC 7ABB0B00 Copy CRC 7ABB0B00 Accurately ripped (confidence 4) 0E921B8B (AR v2) Copy OK Track 11 Filename H img rel"usm" src sml/super_f" border"0" align"absmiddle" alt / EAC ripsflacharry Belafonte.Harry Belafonte / Greatest Hits, used drive : atapi iHAS324 B Adapter: 0 ID:.Selected bitrate : 1024 pride and prejudice wild and wanton ebook kBit/s, quality : High, add ID3 tag :.




Sitemap